Closed Thread
Ðiều Chỉnh
Unread 01-05-2010, 10:45 PM   #1
Default Avatar 3D (Red-Cyan, Amber-Blue/ColorCode, Polarized)

Avatar 3D
(3D Red-Cyan, Amber-Blue/ColorCode, Polarized)
(m-HD 1080, SD DVD) (cập nhật ngày 30-04-2010)

Trích:
Avatar là câu chuyện về người anh hùng "bất đắc dĩ" Jake Sully - một cựu sĩ quan thủy quân lục chiến bị liệt nửa thân. Anh được chọn để tham gia vào chương trình cấy gien với người ngoài hành tinh Na'vi nhằm tạo ra một giống loài mới có thể hít thở không khí tại hành tinh Pandora. Giống người mới này được gọi là Avatar. Sau khi đã trở thành một Avatar, Jake có nhiệm vụ đi tìm hiều và nghiên cứu hành tinh Pandora. Những thông tin mà anh thu thập được rất có giá trị cho chiến dịch xâm chiếm hành tinh xanh thứ hai này của loài người.
Nhân dịp lễ Quốc Khánh 30/4 và Quốc tế Lao Động 1/5, tui xin gửi tặng đến các bạn bộ phim Avatar 3D đã được tui chuyển thể thành công
Kỳ này sẽ có:
- Thử nghiệm làm phim m-HD 1080 với dung lượng thấp nhất có thể
- Làm riêng 1 bản SD DVD dung lượng thấp cho bạn nào có nhu cầu. Trong bản này tui không sử dụng công nghệ bảo vệ nội dung video và tui cũng đã add sẵn hardsub,rất thuận tiện cho bạn nào muốn burn phim ra DVD. Tuy nhiên chất lượng hình ảnh và âm thanh đều không được tốt nhất.
- Có lẽ tui sẽ không làm bản 3D dành cho kính Green-Magenta, vì loại kính này quá ít người sử dụng
- Bổ sung thêm trailer giới thiệu để các bạn có thể dễ dàng suy xét trước khi download
- Thử nghiệm chuyển phim sang 3D Polarized (3D phân cực). Cái khó là tui không có thiết bị xem để check kết quả làm việc của mình. Tui chỉ dựa theo 1 số hình ảnh 3D Polarized thu nhặt được mà suy diễn theo. Nếu bạn nào có điều kiện test được thì báo lại kết quả giùm tui nhé. Do không chắc cú vụ này nên tui chỉ làm Trailer mà thôi

Thông tin file video m-HD
Code:
Format                           : Matroska
File size                        : 10.7 GiB
Duration                         : 2h 41mn
Overall bit rate                 : 9 502 Kbps
Encoded date                     : UTC 2010-04-29 11:12:15
Writing application              : mkvmerge v3.3.0 ('Language') built on Mar 24 2010 14:59:24
Writing library                  : libebml v0.8.0 + libmatroska v0.9.0

Video
ID                               : 1
Format                           : MPEG-4 Visual
Format settings, BVOP            : Yes
Format settings, QPel            : No
Format settings, GMC             : No warppoints
Format settings, Matrix          : Default (H.263)
Codec ID                         : DX50
Codec ID/Hint                    : DivX 5
Duration                         : 2h 41mn
Bit rate                         : 7 803 Kbps
Width                            : 1 920 pixels
Height                           : 1 080 pixels
Display aspect ratio             : 16:9
Frame rate                       : 23.976 fps
Resolution                       : 8 bits
Colorimetry                      : 4:2:0
Scan type                        : Progressive
Bits/(Pixel*Frame)               : 0.157
Stream size                      : 8.82 GiB (82%)
Title                            : 3D conversion by N?K
Writing library                  : DivX 6.8.5 (UTC 2009-08-20)

Audio
ID                               : 2
Format                           : DTS
Format/Info                      : Digital Theater Systems
Codec ID                         : A_DTS
Duration                         : 2h 41mn
Bit rate mode                    : Constant
Bit rate                         : 1 510 Kbps
Channel(s)                       : 6 channels
Channel positions                : Front: L C R, Side: L R, LFE
Sampling rate                    : 48.0 KHz
Resolution                       : 24 bits
Stream size                      : 1.71 GiB (16%)

Text
ID                               : 3
Format                           : UTF-8
Codec ID                         : S_TEXT/UTF8
Codec ID/Info                    : UTF-8 Plain Text
Trailer Avatar 3D Red-Cyan





Link download m-HD dành cho kính Red-Cyan
Code:
http://megashare.vn/dl.php/1161628
Mirror download m-HD dành cho kính Red-Cyan
Code:
http://disk.vn/webhard/view.php?id=33197&fv=admin
Link download SD DVD dành cho kính Red-Cyan
Code:
http://megashare.vn/dl.php/1165446
Mirror download SD DVD dành cho kính Red-Cyan
Code:
http://disk.vn/webhard/view.php?id=33237&fv=admin
Trailer Avatar 3D Amber-Blue (ColorCode)





Link download m-HD dành cho kính Amber-Blue (ColorCode)
Code:
http://megashare.vn/dl.php/1166094
Mirror download m-HD dành cho kính Amber-Blue (ColorCode)
Code:
http://disk.vn/webhard/view.php?id=33243&fv=admin
Link download SD DVD dành cho kính Amber-Blue (ColorCode)
Code:
http://megashare.vn/dl.php/1166353
Mirror download SD DVD dành cho kính Amber-Blue (ColorCode)
Code:
(processing...)
Trailer Avatar 3D Polarized

bestkings vẫn chưa có mặt trong diễn đàn  
Dưới đây là những người đã click Thanks bestkings về bài viết hay này:
Unread 02-05-2010, 12:47 AM   #2
Default

Phim mới post nóng hổi, phục vụ a e

Spartacus 2010: Blood and sand (18+)
http://www.phim3d.net/2010/04/spartacus-2010-blood-and-sand-18.html

Thị Trấn Smallville 9 - Smallville Season 9 ( 2010)
http://www.phim3d.net/2010/04/thi-tran-smallville-9-smallville-season.html

Mặt Trận Thái Bình Dương - The Pacific 2010
http://www.phim3d.net/2010/05/mat-tran-thai-binh-duong-pacific-2010.html

Genghis Khan ( Mongol 2007 )
http://www.phim3d.net/2010/04/genghis-khan-mongol-2007.html

How to Train Your Dragon 3D
http://www.phim3d.net/2010/04/how-to-train-your-dragon-2010_30.html

[b]Thật Nguyệt Vi Thành - Bodyguards and assassins 2009[b]

http://www.phim3d.net/2010/04/that-nguyet-vi-thanh-bodyguards-and.html
Future X Cop (2010) - Cảnh Sát Tương Lai (VietSub)

http://www.phim3d.net/2010/04/future-x-cop-2010-canh-sat-tuong-lai.html

Tô Khất Nhi 2010 - True Legend
http://www.phim3d.net/2010/04/to-khat-nhi-2010-true-legend.html

Đại Nội Mật Thám 2010 - Cổ Thiên Lạc :
http://www.phim3d.net/2010/04/ai-noi-mat-tham-2010-co-thien-lac.html

Clash Of The Titans 3D - Cuộc Chiến Giữa Các Vị Thần 3D
http://www.phim3d.net/2010/04/clash-of-titans-cuoc-chien-giua-cac-vi.html

Avatar 3D
http://www.phim3d.net/2010/01/avatar-phim-3d.html

My Bloody Valentine 3D( Kỳ Valentine Đẫm Máu )
http://www.phim3d.net/2010/04/my-bloody-valentine-3d-ky-valentine-am.html

Alice In Wonderland 3D
http://www.phim3d.net/2010/03/alice-in-wonderland-3d_27.html

Mỹ Nhân Tâm Kế - Schemes of a Beauty
http://www.phim3d.net/2010/04/my-nhan-tam-ke-schemes-of-beauty.html

Once Upon A Chinese Classic 2010 ( 9 Tap Full)
http://www.phim3d.net/2010/04/once-upon-chinese-classic-2010-9-tap.html

Prison Break - Vượt Ngục
http://www.phim3d.net/2010/04/prison-break-vuot-nguc-phan-2.html

Fire Of Conscience 2010 - Hỏa Long Đối Quyết :
http://www.phim3d.net/2010/04/fire-of-conscience-hoa-long-oi-quyet.html


The Bounty Hunter Kẻ Săn Tiền Thưởng (2010)
http://www.phim3d.net/2010/04/bounty-hunter-ke-san-tien-thuong.html
phim3d.net vẫn chưa có mặt trong diễn đàn  
Dưới đây là những người đã click Thanks phim3d.net về bài viết hay này:
Unread 03-05-2010, 07:12 PM   #3
Default

Cảm ơn bạn nhé mihf dang down cái megashare này cứ phải down đêm thì mới nhanh đc có hôm down 18GB film 2012 3D mất 8h thì xong :P
jk2tuoi vẫn chưa có mặt trong diễn đàn  
Closed Thread

Ðiều Chỉnh

Chuyển đến


Bây giờ là 04:32 AM. Theo múi giờ GMT +7.